Sudani from Nigeria (2018) Malayalam - Original - DVDRip - x264 -...

seeders: 46
leechers: 12
updated:
Added by MovCr in Other


strongly advises you to use NordVPN while downloading torrents.
NordVPN is the safest VPN on the market, and the fastest VPN as well.
No IP Log is saved using NordVPN, avoid other VPN providers and choose the safest one.
Click here and buy NordVPN it's on rebates today!
We were able to verify your IP: 95.85.69.167 and country: Russian Federation.
If we can do that, others can too, protect your privacy with NordVPN.
is trying the best for you!


Description

http://movcr.com 

Sudani from Nigeria (2018) Malayalam - Original - DVDRip - x264 - 700MB - AAC - ESub - MovCr  
 

Video
ID                          : 1
Format                      : AVC
Format/Info                 : Advanced Video Codec
Format profile              : [email protected] 
Format settings             : CABAC / 4 Ref Frames
Format settings, CABAC      : Yes
Format settings, ReFrames   : 4 frames
Codec ID                    : V_MPEG4/ISO/AVC
Duration                    : 2 h 1 min
Bit rate                    : 760 kb/s
Width                       : 720 pixels
Height                      : 304 pixels
Display aspect ratio        : 2.35:1
Frame rate mode             : Variable
Frame rate                  : 23.976 FPS
Color space                 : YUV
Chroma subsampling          : 4:2:0
Bit depth                   : 8 bits
Scan type                   : Progressive
Bits/(Pixel*Frame)          : 0.145
Stream size                 : 657 MiB (92%)
Title                       : www.MovCr.com
Writing library             : x264 core 112
Encoding settings           : cabac=1 / ref=2 / deblock=1:0:0 / analyse=0x1:0x111 / me=hex / subme=6 / psy=1 / psy_rd=1.00:0.00 / mixed_ref=0 / me_range=16 / chroma_me=1 / trellis=0 / 8x8dct=0 / cqm=0 / deadzone=21,11 / fast_pskip=1 / chroma_qp_offset=-2 / threads=12 / sliced_threads=0 / nr=0 / decimate=1 / interlaced=0 / constrained_intra=0 / bframes=2 / b_pyramid=2 / b_adapt=1 / b_bias=0 / direct=1 / weightb=0 / open_gop=0 / weightp=2 / keyint=240 / keyint_min=23 / scenecut=40 / intra_refresh=0 / rc_lookahead=40 / rc=abr / mbtree=1 / bitrate=760 / ratetol=1.0 / qcomp=0.60 / qpmin=3 / qpmax=51 / qpstep=4 / ip_ratio=1.40 / aq=1:1.00
Language                    : English
Default                     : Yes
Forced                      : No
Color range                 : Limited
Color primaries             : BT.601 NTSC
Transfer characteristics    : BT.709
Matrix coefficients         : BT.601

Audio
ID                          : 2
Format                      : AAC
Format/Info                 : Advanced Audio Codec
Format profile              : LC
Codec ID                    : A_AAC-2
Duration                    : 2 h 1 min
Bit rate                    : 63.8 kb/s
Channel(s)                  : 2 channels
Channel positions           : Front: L R
Sampling rate               : 48.0 kHz
Frame rate                  : 46.875 FPS (1024 SPF)
Compression mode            : Lossy
Stream size                 : 55.5 MiB (8%)
Title                       : www.MovCr.com
Language                    : Malayalam
Default                     : Yes
Forced                      : No

Text
ID                          : 3
Format                      : UTF-8
Codec ID                    : S_TEXT/UTF8
Codec ID/Info               : UTF-8 Plain Text
Duration                    : 1 h 56 min
Bit rate                    : 59 b/s
Count of elements           : 1491
Stream size                 : 50.8 KiB (0%)
Title                       : www.MovCr.com
Default                     : Yes
Forced                      : No



 

 


Sharing Widget


Download torrent
Size: 714.5 MB
seeders:46
leechers:12
Sudani from Nigeria (2018) Malayalam - Original - DVDRip - x264 -... - (749207552 Bytes)



To share this torrent use the code below and insert it into comments, status messages, forum posts or your signature.

Torrent: Sudani from Nigeria (2018) Malayalam - Original - DVDRip - x264 -...

Trackers

tracker name
udp://tracker.openbittorrent.com:80/announce
udp://tracker.opentrackr.org:1337/announce
udp://tracker.coppersurfer.tk:6969/announce
udp://tracker.opentrackr.org:1337/announce
udp://tracker.leechers-paradise.org:6969/announce
udp://9.rarbg.to:2750/announce
udp://eddie4.nl:6969/announce
udp://9.rarbg.to:2750/announce
udp://tracker.doko.moe:6969/announce
udp://thetracker.org:80/announce
udp://bt.xxx-tracker.com:2710/announce
udp://tracker.vanitycore.co:6969/announce
udp://tracker.tiny-vps.com:6969/announce
udp://tracker.leechers-paradise.org:6969/announce
udp://tracker.zer0day.to:1337/announce
udp://tracker.leechers-paradise.org:6969/announce
udp://coppersurfer.tk:6969/announce
ĀµTorrent compatible trackers list

Locations

name
KickassTorrents
Torrent hash: AB25C3B724422DB6112BBE60E32D422FB4389A91

strongly advises you to use NordVPN while downloading torrents.
NordVPN is the safest VPN on the market, and the fastest VPN as well.
No IP Log is saved using NordVPN, avoid other VPN providers and choose the safest one.
Click here and buy NordVPN it's on rebates today!
We were able to verify your IP: 95.85.69.167 and country: Russian Federation.
If we can do that, others can too, protect your privacy with NordVPN.
is trying the best for you!

All Comments

*comments box temporarily disabled*
Report a bug